Jump to content
Sport Download Forum

tex

vip - 1
  • Content Count

    16
  • Joined

  • Last visited

  • Days Won

    2

tex last won the day on July 24

tex had the most liked content!

Community Reputation

3 Neutral

1 Follower

Recent Profile Visitors

The recent visitors block is disabled and is not being shown to other users.

  1. https://mega.nz/folder/8MgFyYaJ#To0ydECuiA9B3pyLTAthhg
  2. I have TNT with Tony Jones, Alan Smith commentary in 720 (mkv). Also have the Pre/Post Match with BTSports if you want those.
  3. https://mega.nz/folder/AJZkFCSA#QKqITn7IJO4GttjMdKh4Nw
  4. https://mega.nz/file/tUwTFT4b#IZT47OQbeFQnyYtamx8yj6xitNkdvj5UXvCQKWqbwuQ
  5. Yep. Is this alright? Video ID : 481 (0x1E1) Menu ID : 1 (0x1) Format : AVC Format/Info : Advanced Video Codec Format profile : High@L3.2 Format settings : CABAC / 4 Ref Frames Format settings, CABAC : Yes Format settings, Reference frames : 4 frames Format settings, GOP : M=4, N=120 Codec ID : 27 Duration : 2 h 3 min Bit rate mode : Constant Nominal bit rate : 7 000 kb/s Width : 1 280 pixels Height : 720 pixels Display aspect ratio : 16:9 Frame rate : 59.940 (60000/1001) FPS Color space : YUV Chroma subsampling : 4:2:0 Bit depth : 8 bits Scan type : Progressive Bits/(Pixel*Frame) : 0.127 Audio ID : 482 (0x1E2) Menu ID : 1 (0x1) Format : AAC LC Format/Info : Advanced Audio Codec Low Complexity Format version : Version 2 Muxing mode : ADTS Codec ID : 15-2 Duration : 2 h 3 min Bit rate mode : Variable Channel(s) : 2 channels Channel layout : L R Sampling rate : 44.1 kHz Frame rate : 43.066 FPS (1024 SPF) Compression mode : Lossy
  6. Video ID : 4113 (0x1011) Menu ID : 1 (0x1) Format : AVC Format/Info : Advanced Video Codec Format profile : High@L4 Format settings : CABAC / 3 Ref Frames Format settings, CABAC : Yes Format settings, Reference frames : 3 frames Codec ID : 27 Duration : 2 h 11 min Bit rate : 7 913 kb/s Width : 1 920 pixels Height : 1 080 pixels Display aspect ratio : 16:9 Frame rate : 25.000 FPS Standard : Component Color space : YUV Chroma subsampling : 4:2:0 Bit depth : 8 bits Scan type : Progressive Bits/(Pixel*Frame) : 0.153 Stream size : 7.27 GiB (91%) Color range : Limited Color primaries : BT.709 Transfer characteristics : BT.709 Matrix coefficients : BT.709 Audio ID : 4352 (0x1100) Menu ID : 1 (0x1) Format : AC-3 Format/Info : Audio Coding 3 Commercial name : Dolby Digital Codec ID : 129 Duration : 2 h 11 min Bit rate mode : Constant Bit rate : 384 kb/s Channel(s) : 6 channels Channel layout : L R C LFE Ls Rs Sampling rate : 48.0 kHz Frame rate : 31.250 FPS (1536 SPF) Compression mode : Lossy Stream size : 361 MiB (4%) Language : English Service kind : Complete Main https://mega.nz/file/wEpnzZ7I#rHp6jujyBipsOjx7vIDwUKSq46LE2JDzB2aoCJir6gw
  7. Can I please join? I've got plenty of Chelsea matches to contribute.
  8. https://mega.nz/file/kiQ2AayI#ErZN48GQ8TVnOoPPl6R2E4jWXPJxK6zV5nmJaSLN60A
  9. I have it in 720 if you're still interested. General Format : MPEG-TS File size : 3.75 GiB Duration : 2 h 4 min Overall bit rate mode : Variable Overall bit rate : 4 291 kb/s Law rating : N/A FileExtension_Invalid : ts m2t m2s m4t m4s tmf ts tp trp ty Video ID : 481 (0x1E1) Menu ID : 1 (0x1) Format : AVC Format/Info : Advanced Video Codec Format profile : High@L3.2 Format settings : CABAC / 4 Ref Frames Format settings, CABAC : Yes Format settings, Reference frames : 4 frames Format settings, GOP : M=4, N=120 Codec ID : 27 Duration : 2 h 4 min Bit rate mode : Constant Nominal bit rate : 4 000 kb/s Width : 1 280 pixels Height : 720 pixels Display aspect ratio : 16:9 Frame rate : 59.940 (60000/1001) FPS Color space : YUV Chroma subsampling : 4:2:0 Bit depth : 8 bits Scan type : Progressive Bits/(Pixel*Frame) : 0.072 Audio ID : 482 (0x1E2) Menu ID : 1 (0x1) Format : AAC LC Format/Info : Advanced Audio Codec Low Complexity Format version : Version 2 Muxing mode : ADTS Codec ID : 15-2 Duration : 2 h 4 min Bit rate mode : Variable Channel(s) : 2 channels Channel layout : L R Sampling rate : 44.1 kHz Frame rate : 43.066 FPS (1024 SPF) Compression mode : Lossy Delay relative to video : 13 ms Text ID : 481 (0x1E1)-CC1 Menu ID : 1 (0x1) Format : EIA-608 Muxing mode : SCTE 128 / DTVCC Transport Muxing mode, more info : Muxed in Video #1 Duration : 2 h 4 min Bit rate mode : Constant Stream size : 0.00 Byte (0%) CaptionServiceName : CC1 Menu ID : 480 (0x1E0) Menu ID : 1 (0x1) Duration : 2 h 4 min List : 483 (0x1E3) () / 481 (0x1E1) (AVC) / 482 (0x1E2) (AAC) Law rating : N/A
  10. https://mega.nz/file/dzxnzazL#FIM44f-aUF0EVUdNW4_cDFm8xH-iadyTNOP1VFQ4BiA
  11. I think you meant EFL Cup (Carabao Cup). I will upload it. Video ID : 4113 (0x1011) Menu ID : 1 (0x1) Format : AVC Format/Info : Advanced Video Codec Format profile : High@L4 Format settings : CABAC / 3 Ref Frames Format settings, CABAC : Yes Format settings, Reference frames : 3 frames Codec ID : 27 Duration : 1 h 51 min Bit rate : 8 311 kb/s Width : 1 920 pixels Height : 1 080 pixels Display aspect ratio : 16:9 Frame rate : 25.000 FPS Standard : Component Color space : YUV Chroma subsampling : 4:2:0 Bit depth : 8 bits Scan type : Progressive Bits/(Pixel*Frame) : 0.160 Stream size : 6.48 GiB (91%) Color range : Limited Color primaries : BT.709 Transfer characteristics : BT.709 Matrix coefficients : BT.709 Audio ID : 4352 (0x1100) Menu ID : 1 (0x1) Format : AC-3 Format/Info : Audio Coding 3 Commercial name : Dolby Digital Codec ID : 129 Duration : 1 h 51 min Bit rate mode : Constant Bit rate : 384 kb/s Channel(s) : 2 channels Channel layout : L R Sampling rate : 48.0 kHz Frame rate : 31.250 FPS (1536 SPF) Compression mode : Lossy Stream size : 306 MiB (4%) Language : English Service kind : Complete Main
  12. https://mega.nz/folder/EyZEjArJ#cWPHXZ3ijBjZg_pZC982ow
  13. Not great quality but I will upload it if you still want it. Video ID : 0 Format : MPEG-4 Visual Format profile : Advanced Simple@L5 Format settings : BVOP2 Format settings, BVOP : 2 Format settings, QPel : No Format settings, GMC : No warppoints Format settings, Matrix : Default (H.263) Muxing mode : Packed bitstream Codec ID : XVID Codec ID/Hint : XviD Duration : 52 min 15 s Bit rate : 1 033 kb/s Width : 640 pixels Height : 368 pixels Display aspect ratio : 16:9 Frame rate : 25.000 FPS Color space : YUV Chroma subsampling : 4:2:0 Bit depth : 8 bits Scan type : Progressive Compression mode : Lossy Bits/(Pixel*Frame) : 0.175 Stream size : 386 MiB (88%) Writing library : XviD 1.2.1 (UTC 2008-12-04) Audio ID : 1 Format : MPEG Audio Format version : Version 1 Format profile : Layer 3 Format settings : Joint stereo / MS Stereo Codec ID : 55 Codec ID/Hint : MP3 Duration : 52 min 15 s Bit rate mode : Constant Bit rate : 128 kb/s Channel(s) : 2 channels Sampling rate : 48.0 kHz Compression mode : Lossy Stream size : 47.9 MiB (11%) Alignment : Aligned on interleaves Interleave, duration : 40 ms (1.00 video frame) Interleave, preload duration : 504 ms
  14. My bad. Chrome and Firefox were both not showing it correctly. I'm dumb.
  15. This person isn't sharing what you think. It's just an image of some dubai island. I never opened it but I wouldn't since it could be masked for a virus.
×
×
  • Create New...